<?xml version="1.0" standalone="no"?>
<!DOCTYPE svg PUBLIC "-//W3C//DTD SVG 1.1//EN" "http://www.w3.org/Graphics/SVG/1.1/DTD/svg11.dtd" >
<svg xmlns="http://www.w3.org/2000/svg">
<metadata>Generated by IcoMoon</metadata>
<defs>
<font id="stmicons" horiz-adv-x="1024">
<font-face units-per-em="1024" ascent="960" descent="-64" />
<missing-glyph horiz-adv-x="1024" />
<glyph unicode="&#x20;" horiz-adv-x="512" d="" />
<glyph unicode="&#xe686;" glyph-name="uniE686" d="M340.791 837.347l-293.977-69.999v-745.474l296.792-85.872 290.724 84.124c0 0 1.003 738.728 0 738.923l-293.539 78.298zM602.583 50.304l-224.382-64.887v666.739l224.382 64.887v-666.739zM406.826 610.749v-105.89l19.287 5.47 55.793 15.728v105.856l-55.793-15.728zM577.875 658.871l-75.047-21.164v-105.888l75.047 21.18zM406.826 472.159v-105.89l19.287 5.47 55.793 15.744v105.856l-55.793-15.76zM577.875 520.281l-75.047-21.18v-105.874l75.047 21.182zM406.826 333.567v-105.872l75.081 21.148v105.89l-55.793-15.712zM577.875 381.675l-75.047-21.133v-105.874l75.047 21.166zM976.754 886.345l-290.708 73.655-296.825-65.37v-40.322l273.913-71.908c0 0 0-646.9-0.082-712.418l22.994-6.651 290.708 84.060c0-0.002 0.969 738.758 0 738.953zM944.99 177.599l-224.334-64.934v666.771l224.334 64.903c0 0 0-666.739 0-666.739zM749.233 738.012v-105.856l75.079 21.164v105.872l-55.791-15.728zM920.282 786.152l-75.031-21.182v-105.856l75.031 21.148zM749.233 599.438v-105.888l75.079 21.196v105.856l-55.791-15.728zM920.282 647.56l-75.031-21.196v-105.856l75.031 21.18zM749.233 460.833v-105.858l75.079 21.148v105.89l-55.791-15.728zM920.282 508.954l-75.031-21.164v-105.856l75.031 21.18z" />
<glyph unicode="&#xe687;" glyph-name="uniE687" d="M56.911 368.789l455.089 374.3 455.089-374.3 56.911 69.193-512 421.105-512-421.105zM512 653.591l-330.117-272.447v-344.231h660.234v343.236l-330.117 273.442zM504.038 168.159h-122.303v114.346h122.303v-114.346zM504.038 297.421h-122.303v114.349h122.303v-114.349zM642.247 168.159h-122.303v114.346h122.303v-114.346zM642.247 297.421h-122.303v114.349h122.303v-114.349z" />
<glyph unicode="&#xe688;" glyph-name="uniE688" d="M848.761 459.561l-309.221 193.114c-16.783 10.444-38.217 10.444-55.053 0l-309.221-193.14c-15.199-9.457-24.422-26.162-24.422-44.037v-321.77c0-28.683 23.279-51.961 51.961-51.961h618.443c28.683 0 51.961 23.279 51.961 51.961v321.796c-0.052 17.901-9.249 34.58-24.448 44.037zM493.112 193.936c0-17.875-14.497-32.346-32.398-32.346h-53.962c-17.875 0-32.398 14.549-32.398 32.346v54.014c0 17.875 14.497 32.372 32.398 32.372h53.962c17.875 0 32.398-14.549 32.398-32.372v-54.014zM493.112 345.065c0-17.875-14.497-32.372-32.398-32.372h-53.962c-17.875 0-32.398 14.523-32.398 32.372v54.014c0 17.875 14.497 32.32 32.398 32.32h53.962c17.875 0 32.398-14.523 32.398-32.32v-54.014zM649.619 193.936c0-17.875-14.523-32.346-32.398-32.346h-53.962c-17.875 0-32.398 14.549-32.398 32.346v54.014c0 17.875 14.549 32.372 32.398 32.372h53.962c17.875 0 32.398-14.549 32.398-32.372v-54.014zM649.619 345.065c0-17.875-14.523-32.372-32.398-32.372h-53.962c-17.875 0-32.398 14.523-32.398 32.372v54.014c0 17.875 14.549 32.32 32.398 32.32h53.962c17.875 0 32.398-14.523 32.398-32.32v-54.014zM1016.076 487.517c-9.847-15.718-26.734-24.37-44.063-24.37-9.405 0-18.94 2.546-27.539 7.898l-432.473 269.991-432.499-270.069c-24.37-15.225-56.404-7.794-71.603 16.576s-7.794 56.378 16.55 71.603l460.039 287.268c16.835 10.444 38.243 10.444 55.053 0l460.039-287.32c24.344-15.199 31.722-47.181 16.498-71.577z" />
<glyph unicode="&#xe689;" glyph-name="uniE689" d="M1023.048 6.286l-97.445 340.049c-3 10.445-12.579 17.645-23.444 17.645h-41.38v-174.234c0-40.302-32.8-73.113-73.113-73.113h-550.849c-40.335 0-73.113 32.811-73.113 73.113 0 0-0.356-0.499-0.42-0.6 0 0.201-0.068 0.388-0.068 0.6v174.234h-41.377c-10.865 0-20.444-7.2-23.444-17.645l-97.445-340.049c-2.109-7.355-0.668-15.256 3.959-21.378 4.574-6.112 11.821-9.701 19.442-9.701 0.090-0.011 975.297 0 975.297 0 7.624 0 14.871 3.589 19.445 9.701 4.624 6.122 6.065 14.023 3.956 21.378zM170.037 542.213l341.738 293.826 341.735-293.826c6.888-5.921 15.353-8.832 23.753-8.832 10.312 0 20.534 4.312 27.759 12.712 13.154 15.32 11.465 38.402-3.891 51.545l-365.534 314.32c-13.668 11.789-33.979 11.789-47.668 0l-365.556-314.324c-15.313-13.143-17.067-36.224-3.909-51.545 13.219-15.31 36.332-17.056 51.573-3.877zM495.844 789.46l-275.448-237.661c-5.332-4.667-8.426-11.39-8.426-18.468v-343.592c0-13.466 10.912-24.357 24.357-24.357h550.849c13.488 0 24.4 10.89 24.4 24.357v343.592c0 7.078-3.090 13.801-8.49 18.468l-275.401 237.661c-9.133 7.879-22.708 7.879-31.841 0zM487.376 273.154c0-13.456-10.912-24.378-24.357-24.378h-85.286c-13.492 0-24.403 10.923-24.403 24.378v85.376c0 13.456 10.912 24.368 24.403 24.368h85.286c13.445 0 24.357-10.912 24.357-24.368v-85.376zM487.376 456.014c0-13.466-10.912-24.378-24.357-24.378h-85.286c-13.492 0-24.403 10.912-24.403 24.378v85.365c0 13.466 10.912 24.378 24.403 24.378h85.286c13.445 0 24.357-10.912 24.357-24.378v-85.365zM536.132 541.379c0 13.466 10.887 24.378 24.4 24.378h85.268c13.441 0 24.353-10.912 24.353-24.378v-85.365c0-13.466-10.912-24.378-24.353-24.378h-85.268c-13.513 0-24.4 10.912-24.4 24.378v85.365zM536.132 358.533c0 13.456 10.887 24.368 24.4 24.368h85.268c13.441 0 24.353-10.912 24.353-24.368v-85.376c0-13.456-10.912-24.378-24.353-24.378h-85.268c-13.513 0-24.4 10.923-24.4 24.378v85.376z" />
<glyph unicode="&#xe68a;" glyph-name="uniE68A" d="M261.656 432.514v-395.155h493.37v395.155l-246.72 209.567-246.65-209.567zM482.439 158.554h-101.238v102.579h101.238v-102.579zM482.439 313.547h-101.238v102.557h101.238v-102.557zM534.138 416.105h101.273v-102.557h-101.273v102.557zM534.138 261.179h101.273v-102.601h-101.273v102.601zM911.541 525.048l-370.015 314.349c-19.207 16.321-47.244 16.321-66.475 0l-369.945-314.349c-21.855-18.571-24.754-51.641-6.422-73.803 10.229-12.366 24.889-18.73 39.71-18.73 11.706 0 23.491 4.021 33.175 12.251l336.738 286.122 336.751-286.122c21.98-18.684 54.529-15.66 72.849 6.479 18.361 22.162 15.476 55.232-6.366 73.803z" />
<glyph unicode="&#xe68b;" glyph-name="uniE68B" d="M44.16 466.944l425.216 16.864 258.72 298.848 247.296-370.528 48.608 6.976-290.88 413.12-297.056-55.008v52.8l-24.48 5.056-73.728-15.584v-60.448l-99.040-18.368-238.816-216.928v-57.12c0-0.032 24.416 0.608 44.16 0.32zM726.464 757.056l-249.728-288.512-407.776-16.224v-346.24l374.656-45.12 234.208 27.328v269.76l107.776 0.16v-257.312l172.672 21.152v287.68l-231.808 347.328zM228.032 214.112l-108.576 7.008v138.56l108.576-0.064v-145.504zM411.584 203.040l-126.24 8.096v149.12l126.24-0.032v-157.184zM624.672 209.504l-133.28-8.736v158.080l133.28 0.096v-149.44zM927.072 228.448l-100.64-6.624v136.8l100.64 0.128v-130.304z" />
<glyph unicode="&#xe68c;" glyph-name="uniE68C" horiz-adv-x="973" d="M478.162 793.663l406.115-232.364 89.663-0.38-197.576 320.697-90.17-0.127v78.511h-104.491v-78.701l-98.154-0.697-287.176-0.507-197.513-326.653 104.871 0.57zM898.788 491.533l-416.95 231.667-397.814-235.089v-441.537h-61.719v-110.574h933.386v110.574h-56.903v444.958zM276.214 193.394h-121.6v205.18h121.537l0.063-205.18zM567.065 40.491v0h-168.111v350.099h168.111v-350.099zM827.184 193.394h-121.537v205.18h121.537v-205.18z" />
<glyph unicode="&#xe68d;" glyph-name="uniE68D" d="M211.981 313.706h-57.813c-7.227 0-12.044-4.818-12.044-12.044v-69.857c0-7.227 4.818-12.044 12.044-12.044h57.813c7.227 0 12.044 4.818 12.044 12.044v69.857c0 7.225-4.818 12.044-12.044 12.044zM211.981 178.81h-57.813c-7.227 0-12.044-4.818-12.044-12.044v-69.857c0-7.227 4.818-12.044 12.044-12.044h57.813c7.227 0 12.044 4.818 12.044 12.044v69.857c0 4.818-4.818 12.044-12.044 12.044zM330.015 313.706h-57.813c-7.227 0-12.044-4.818-12.044-12.044v-69.857c0-7.227 4.818-12.044 12.044-12.044h57.813c7.227 0 12.044 4.818 12.044 12.044v69.857c0 7.225-4.818 12.044-12.044 12.044zM330.015 178.81h-57.813c-7.227 0-12.044-4.818-12.044-12.044v-69.857c0-7.227 4.818-12.044 12.044-12.044h57.813c7.227 0 12.044 4.818 12.044 12.044v69.857c0 4.818-4.818 12.044-12.044 12.044zM696.163 219.759h57.813c7.227 0 12.042 4.818 12.042 12.044v69.857c0 7.227-4.816 12.044-12.042 12.044h-57.813c-7.229 0-12.044-4.818-12.044-12.044v-69.857c0-4.818 4.816-12.044 12.044-12.044zM696.163 84.862h57.813c7.227 0 12.042 4.818 12.042 12.044v69.857c0 7.227-4.816 12.044-12.042 12.044h-57.813c-7.229 0-12.044-4.818-12.044-12.044v-69.857c0-7.227 4.816-12.044 12.044-12.044zM814.198 219.759h57.813c7.227 0 12.044 4.818 12.044 12.044v69.857c0 7.227-4.818 12.044-12.044 12.044h-57.813c-7.227 0-12.044-4.818-12.044-12.044v-69.857c0-4.818 4.818-12.044 12.044-12.044zM814.198 84.862h57.813c7.227 0 12.044 4.818 12.044 12.044v69.857c0 7.227-4.818 12.044-12.044 12.044h-57.813c-7.227 0-12.044-4.818-12.044-12.044v-69.857c0-7.227 4.818-12.044 12.044-12.044zM211.981 446.194h-57.813c-7.227 0-12.044-4.818-12.044-12.044v-69.857c0-7.227 4.818-12.044 12.044-12.044h57.813c7.227 0 12.044 4.818 12.044 12.044v69.857c0 7.227-4.818 12.044-12.044 12.044zM330.015 446.194h-57.813c-7.227 0-12.044-4.818-12.044-12.044v-69.857c0-7.227 4.818-12.044 12.044-12.044h57.813c7.227 0 12.044 4.818 12.044 12.044v69.857c0 7.227-4.818 12.044-12.044 12.044zM696.163 352.248h57.813c7.227 0 12.042 4.818 12.042 12.044v69.857c0 7.227-4.816 12.044-12.042 12.044h-57.813c-7.229 0-12.044-4.818-12.044-12.044v-69.857c0-7.227 4.816-12.044 12.044-12.044zM814.198 352.248h57.813c7.227 0 12.044 4.818 12.044 12.044v69.857c0 7.227-4.818 12.044-12.044 12.044h-57.813c-7.227 0-12.044-4.818-12.044-12.044v-69.857c0-7.227 4.818-12.044 12.044-12.044zM990.044 655.766h-269.791v86.719l19.271-9.635c16.862-9.635 38.542-2.409 48.177 14.453s2.409 38.542-14.453 48.177l-243.296 130.079c-9.635 4.818-24.089 4.818-33.724 0l-243.296-130.081c-16.862-9.635-24.089-31.315-14.453-48.177 7.227-12.044 19.271-19.271 31.315-19.271 4.818 0 12.044 2.409 16.862 4.818l19.271 9.635v-86.719h-269.793c-19.271 0-36.133-16.862-36.133-36.133v-616.671c0-19.271 16.862-36.131 36.133-36.131h951.504c19.271 0 36.133 16.86 36.133 36.131v619.082c2.409 19.269-14.455 33.724-33.726 33.724zM953.913 41.502h-342.060v233.662c0 55.404-45.769 98.764-98.764 98.764s-98.764-45.769-98.764-98.764v-233.662h-339.651v469.732h269.793c19.271 0 36.133 16.862 36.133 36.133v236.067l134.895 72.266 134.897-72.266v-236.069c0-19.271 16.862-36.133 36.133-36.133h269.793v-469.732h-2.407zM597.4 675.035c0-46.563-37.747-84.31-84.31-84.31s-84.31 37.747-84.31 84.31c0 46.563 37.747 84.31 84.31 84.31s84.31-37.747 84.31-84.31z" />
<glyph unicode="&#xe68e;" glyph-name="uniE68E" d="M274.455 622.587v-593.029h167.948v195.277h139.478v-195.279h167.95v593.032l-237.688 159.081-237.687-159.081zM428.453 252.731h-83.686v83.689h83.686v-83.689zM428.453 378.263h-83.686v83.681h83.686v-83.681zM428.453 503.79h-83.686v83.689h83.686v-83.689zM595.827 587.479h83.69v-83.689h-83.69v83.689zM595.827 461.946h83.69v-83.681h-83.69v83.681zM595.827 336.42h83.69v-83.689h-83.69v83.689zM553.99 252.731h-83.692v83.689h83.692v-83.689zM553.99 378.263h-83.692v83.681h83.692v-83.681zM553.99 503.79h-83.692v83.689h83.692v-83.689zM504.38 810.035h15.525l245.482-164.283h78.021l-331.267 220.692-331.265-220.692h78.019zM1003.077 380.58h-213.865v-351.022h213.865v351.022zM937.99 128.639h-83.68v83.688h83.68v-83.688zM937.99 252.731h-83.68v83.689h83.68v-83.689zM789.212 433.504h234.788v-25.030h-234.788v25.030zM234.79 380.58h-213.87v-351.022h213.87v351.022zM169.692 128.639h-83.688v83.688h83.688v-83.688zM169.692 252.731h-83.688v83.689h83.688v-83.689zM0 433.504h234.79v-25.030h-234.79v25.030z" />
<glyph unicode="&#xe68f;" glyph-name="uniE68F" d="M519.183 659.468c-42.519 0-77.114-34.595-77.114-77.146 0-42.487 34.563-77.114 77.114-77.114s77.178 34.595 77.178 77.114c0 42.551-34.659 77.146-77.178 77.146zM516.896 653.154h7.699v-8.761c-1.256 0.064-2.545 0.161-3.833 0.161s-2.577-0.097-3.865-0.161v8.761zM489.935 644.361l3.157-6.185c-1.192-0.58-2.319-1.127-3.414-1.804l-3.189 6.249 3.447 1.739zM448.672 584.931h8.761c-0.064-1.288-0.161-2.577-0.161-3.865 0-1.256 0.097-2.512 0.161-3.801h-8.761v7.666zM457.369 544.763l-1.772 3.382 8.472 4.349c0.612-1.16 1.224-2.255 1.9-3.35l-8.6-4.381zM466.646 614.146l-6.346 4.413 2.19 3.125 6.217-4.284c-0.741-1.063-1.385-2.126-2.062-3.253zM483.3 517.512l-3.221 2.062 5.54 8.633c1.063-0.709 2.158-1.353 3.318-2.029l-5.637-8.665zM524.595 508.944h-7.699v8.794c1.288-0.064 2.577-0.193 3.865-0.193s2.577 0.129 3.833 0.193v-8.794zM551.588 513.969l-4.703 9.277c1.127 0.548 2.255 1.063 3.382 1.675l4.703-9.245-3.382-1.707zM559.286 577.297h-41.198l-31.181-34.176-0.837 0.741 31.954 35.11v58.754h5.444v-52.859h35.819v-7.57zM557.611 632.765c-1.063 0.709-2.094 1.417-3.221 2.094l3.801 5.959 3.253-2.094-3.833-5.959zM579.064 536.614l-8.117 5.605c0.709 1.031 1.578 2.029 2.255 3.092l8.021-5.476-2.158-3.221zM592.818 577.264h-8.761c0.097 1.288 0.225 2.545 0.225 3.801 0 1.288-0.129 2.577-0.225 3.865h8.761v-7.666zM584.154 613.567l1.772-3.414-6.99-3.543c-0.548 1.16-1.063 2.319-1.707 3.414l6.925 3.543zM702.369 459.145v151.619l-184.7 174.586-183.83-174.586v-151.619h-333.839v-433.726h456.951v186.536h121.373v-186.536l445.677-1.385v433.726l-321.631 1.385zM145.434 163.251h-80.851v78.982h80.851v-78.982zM148.205 275.379h-80.851v79.015h80.851v-79.015zM260.3 163.251h-80.883v78.982h80.883v-78.982zM263.070 275.379h-80.851v79.015h80.851v-79.015zM380.674 163.251h-80.851v78.982h80.883l-0.032-78.982zM383.477 275.379h-80.851v79.015h80.883l-0.032-79.015zM519.183 489.456c-51.216 0-92.865 41.682-92.865 92.865 0 51.248 41.649 92.898 92.865 92.898s92.898-41.649 92.898-92.898c0-51.184-41.682-92.865-92.898-92.865zM726.206 158.613h-80.851v79.079h80.851v-79.079zM728.976 275.379h-80.851v79.015h80.851v-79.015zM841.072 158.613h-80.883v79.079h80.915v-79.079zM843.842 275.379h-80.851v79.015h80.851v-79.015zM961.51 158.613h-80.915v79.079h80.915v-79.079zM964.28 275.379h-80.915v79.015h80.915v-79.015zM520.472 810.378l213.626-212.466 31.116 31.277-244.13 242.777-253.020-241.618 30.504-31.921z" />
<glyph unicode="&#xe690;" glyph-name="uniE690" d="M987.118 83.527v415.129l-425.235 178.584v81.005h41.194v-36.914h145.435v127.992h-73.796v36.882h-112.834v0.322c0 20.243-16.767 36.592-36.882 36.592-20.147 0-36.882-16.349-36.882-36.592v-205.424l-451.206-182.446v-415.129h-36.914v-110.645h433.892v273.363h182.156v-273.363h407.92v110.645h-36.85zM247.327 246.277h99.8v-97.676h-99.8v97.676zM88.986 246.277h101.924v-97.676h-101.924v97.676zM511.936 392.742c-39.521 0-71.639 32.054-71.639 71.704 0 39.553 32.086 71.607 71.639 71.607s71.704-32.022 71.704-71.607c0-39.585-32.054-71.704-71.704-71.704zM841.747 246.277h101.956v-97.676h-101.956v97.676zM683.375 246.277h101.988v-97.676h-101.988v97.676z" />
<glyph unicode="&#xe691;" glyph-name="uniE691" d="M983.009 510.293l-442.17 380.252c-16.592 14.251-41.083 14.251-57.675 0l-442.173-380.252c-18.514-15.92-20.623-43.848-4.707-62.362 15.937-18.504 43.868-20.617 62.362-4.697l413.355 355.478 413.355-355.482c8.339-7.178 18.62-10.691 28.795-10.691 12.435 0 24.825 5.212 33.567 15.391 15.92 18.511 13.807 46.442-4.707 62.362zM671.43 401.961h-318.86l-50.012-140.063h418.884zM742.321 173.401h-110.578c-5.086 0-9.202-4.076-9.202-9.206v-32.986c0-5.086 4.116-9.236 9.202-9.236h110.578c5.065 0 9.206 4.147 9.206 9.236v32.986c0 5.13-4.14 9.206-9.206 9.206zM447.526 161.495c-5.11 0-9.226-4.086-9.226-9.175v-9.216c0-5.089 4.116-9.236 9.226-9.236h128.945c5.11 0 9.226 4.147 9.226 9.236v9.216c0 5.089-4.116 9.175-9.226 9.175h-128.945zM401.463 131.209v32.986c0 5.13-4.116 9.206-9.206 9.206h-110.578c-5.065 0-9.206-4.076-9.206-9.206v-32.986c0-5.086 4.137-9.236 9.206-9.236h110.578c5.089 0.003 9.206 4.151 9.206 9.236zM526.438 736.696c-8.318 7.148-20.562 7.148-28.88 0l-333.216-287.406c-4.878-4.202-7.642-10.312-7.642-16.753v-415.655c0-12.223 9.882-22.115 22.084-22.115h49.483v70.997c-9.161 12.728-14.735 28.204-14.735 45.073v73.697c0 28.279 15.411 52.811 38.127 66.301l64.515 180.668c3.127 8.803 11.462 14.671 20.818 14.671h350.020c9.353 0 17.691-5.868 20.815-14.671l64.515-180.668c22.716-13.489 38.127-38.021 38.127-66.301v-73.697c0-16.869-5.574-32.341-14.735-45.073v-70.997h49.483c12.203 0 22.084 9.888 22.084 22.115v415.659c0 6.438-2.768 12.551-7.642 16.753l-333.22 287.403zM335.131 33.468h353.737v-38.697h-353.737v38.697z" />
<glyph unicode="&#xe692;" glyph-name="uniE692" d="M767.54 664.947c-9.302 123.088-112.54 220.149-238.832 220.149h-32.404c-126.297 0-229.531-97.062-238.855-220.149h-257.449v-728.947h1024.99v728.947h-257.45zM274.178 75.883h-151.888v196.184h151.888v-196.184zM274.178 344.342h-151.888v196.2h151.888v-196.2zM588.454 75.883h-151.895v196.184h151.895v-196.184zM588.454 344.342h-151.895v196.2h151.895v-196.2zM607.409 681.723h-62.592v-62.58h-64.622v62.58h-62.583v64.659h62.583v62.581h64.622v-62.581h62.592v-64.659zM902.718 75.883h-151.896v196.184h151.896v-196.184zM902.718 344.342h-151.896v196.2h151.896v-196.2z" />
<glyph unicode="&#xe693;" glyph-name="uniE693" d="M971.628 604.288c0 0-287.217 0-382.035 0-7.718 0-7.441 7.993-7.441 7.993v175.858c0 28.943-23.429 52.372-52.372 52.372 0 0-56.781 0-75.801 0-9.923 0-8.544 7.718-8.544 7.718v55.678c0 28.943-23.429 52.372-52.372 52.372h-203.977c-28.943 0-52.372-23.429-52.372-52.372v-54.576c0 0 1.653-8.82-9.923-8.82-17.918 0-74.422 0-74.422 0-28.943 0-52.372-23.429-52.372-52.372v-796.045c0-28.943 23.429-52.372 52.372-52.372h919.257c28.943 0 52.372 23.429 52.372 52.372v559.823c0 28.943-23.706 52.372-52.372 52.372zM229.608 851.535h28.943c0 0 6.339-0.277 6.339 6.065 0 7.441 0 29.494 0 29.494 0 14.334 11.576 25.633 25.633 25.633 14.334 0 25.633-11.576 25.633-25.633 0 0 0-23.706 0-31.424 0-4.135 5.514-3.858 5.514-3.858h30.319c14.334 0 25.633-11.576 25.633-25.633 0-14.334-11.576-25.633-25.633-25.633h-28.943c0 0-6.339 0-6.339-5.237 0-7.718 0-30.319 0-30.319 0-14.334-11.576-25.633-25.633-25.633-14.334 0-25.633 11.576-25.633 25.633 0 0 0 22.327 0 30.045 0 6.065-5.514 5.514-5.514 5.514h-29.768c-14.334 0-25.633 11.576-25.633 25.633-0.553 13.778 11.023 25.354 25.082 25.354zM95.646 661.896c0 7.718 6.065 13.783 13.783 13.783h117.422c7.718 0 13.783-6.065 13.783-13.783v-62.845c0-7.718-6.065-13.783-13.783-13.783h-117.422c-7.718 0-13.783 6.065-13.783 13.783v62.845zM95.646 363.655v62.845c0 7.718 6.065 13.783 13.783 13.783h117.422c7.718 0 13.783-6.065 13.783-13.783v-62.845c0-7.718-6.065-13.783-13.783-13.783h-117.422c-7.718 0.002-13.783 6.341-13.783 13.783zM369.908 30.131c0-7.718-6.065-13.783-13.783-13.783h-130.377c-7.718 0-13.783 6.065-13.783 13.783v191.017c0 7.718 6.065 13.783 13.783 13.783h130.377c7.718 0 13.783-6.065 13.783-13.783v-191.017zM486.227 363.655c0-7.718-6.065-13.783-13.783-13.783h-117.422c-7.718 0-13.783 6.065-13.783 13.783v62.845c0 7.718 6.065 13.783 13.783 13.783h117.422c7.718 0 13.783-6.065 13.783-13.783v-62.845zM486.227 599.051c0-7.718-6.065-13.783-13.783-13.783h-117.422c-7.718 0-13.783 6.065-13.783 13.783v62.845c0 7.718 6.065 13.783 13.783 13.783h117.422c7.718 0 13.783-6.065 13.783-13.783v-62.845zM740.641 158.58c0-7.718-6.065-13.783-13.783-13.783h-117.422c-7.718 0-13.783 6.065-13.783 13.783v62.845c0 7.718 6.065 13.783 13.783 13.783h117.422c7.718 0 13.783-6.065 13.783-13.783v-62.845zM740.641 393.976c0-7.718-6.065-13.783-13.783-13.783h-117.422c-7.718 0-13.783 6.065-13.783 13.783v62.845c0 7.718 6.065 13.783 13.783 13.783h117.422c7.718 0 13.783-6.065 13.783-13.783v-62.845zM953.16 158.58c0-7.718-6.065-13.783-13.783-13.783h-117.422c-7.718 0-13.783 6.065-13.783 13.783v62.845c0 7.718 6.065 13.783 13.783 13.783h117.422c7.718 0 13.783-6.065 13.783-13.783v-62.845zM953.16 393.976c0-7.718-6.065-13.783-13.783-13.783h-117.422c-7.718 0-13.783 6.065-13.783 13.783v62.845c0 7.718 6.065 13.783 13.783 13.783h117.422c7.718 0 13.783-6.065 13.783-13.783v-62.845z" />
<glyph unicode="&#xe694;" glyph-name="uniE694" d="M1023.547 128.89l-61.678-0.24-0.107 28.362-30.013-0.16-1.411 421.786 30.013 0.107-0.107 31.665-193.396-0.639 0.107-31.691 30.013 0.107 1.411-421.733-30.013-0.107 0.080-28.362-159.974-0.479-0.107 28.256-30.013-0.053-1.411 421.76 30.013 0.107-0.107 31.638-193.37-0.613 0.107-31.691 30.013 0.107 1.385-421.733-30.013-0.107 0.080-28.389-159.974-0.453-0.107 28.282-30.013-0.107-1.411 421.786 30.013 0.107-0.107 31.665-193.37-0.639 0.107-31.691 30.013 0.107 1.385-421.733-29.987-0.107 0.080-28.362-61.678-0.133 0.453-140.081 1023.521 3.382zM981.789 655.498l-0.32 96.672-483.971 158.43-459.55-161.572 3.648-96.645z" />
<glyph unicode="&#xe695;" glyph-name="uniE695" d="M904.864 94.531c0-20.896 0-8.222 0-29.042 0-105.472-202.189-129.489-391.703-129.489-189.362 0-394.025 23.941-394.025 129.489 0 20.82 0 8.145 0 29.042 0 77.458 139.652 155.981 258.674 199.030 8.602 3.121 49.71 25.578 26.72 85.793-53.25 54.468-89.561 107.184-89.561 226.13h395.281c0-117.728-37.225-170.978-90.094-225.521h0.343c-22.457-68.399 13.474-84.575 19.222-86.44 124.807-41.298 265.145-119.136 265.145-198.992zM737.426 730.71c0 84.842-58.084 159.102-144.258 185.327-13.398 4.073-41.488-152.593-41.488-152.593v172.272c0 13.436-10.619 24.284-22.685 24.284h-33.952c-12.104 0-22.685-10.848-22.685-24.284v-172.31c0 0-28.281 156.628-41.755 152.479-85.946-26.263-143.915-100.447-143.915-185.213 0-21.696-52.222 9.059-52.222-85.603h555.068c0.038 95.575-52.108 63.945-52.108 85.641z" />
<glyph unicode="&#xe696;" glyph-name="uniE696" d="M630.637 690.504c2.359-1.598 3.88-3.995 6.049-5.783h283.305c0 85.863-47.021 57.483-47.021 76.961 0 76.276-52.119 143.041-129.612 166.628-12.060 3.652-37.244-137.221-37.244-137.221v147.074c0 12.098-9.473 21.837-20.467 21.837h-30.548c-10.842 0-20.353-9.739-20.353-21.837v-147.074c0 0-25.451 140.873-37.51 137.107-39.641-12.098-72.32-35.57-95.107-65.738 66.993-36.94 114.167-99.254 128.509-171.954zM785.319 376.346c-5.212 1.712-37.51 16.244-17.348 77.798h-0.304c47.592 48.999 81.069 81.716 81.069 187.589h-179.905c8.94-20.962 13.467-46.222 13.467-75.896 0-41.543-31.956-75.591-72.662-78.977-6.277-84.76-35.342-132.732-68.858-171.459 98.417-38.804 245.186-116.716 245.186-236.969v-19.744c128.547 9.549 237.768 38.956 237.768 112.569 0 18.717 0 7.304 0 26.059 0 71.825-126.226 141.824-238.415 179.030zM706.722 78.509c0-18.793 0-7.418 0-26.097 0-94.879-181.693-116.411-352.201-116.411-170.28 0-354.255 21.57-354.255 116.411 0 18.717 0 7.342 0 26.097 0 69.656 125.58 140.226 232.632 178.954 7.685 2.815 44.7 22.978 23.967 77.113-47.896 48.961-80.537 81.336-80.537 188.274h355.435c0-105.873-33.478-138.628-81.069-187.589h0.304c-20.239-61.553 12.136-76.086 17.271-77.798 112.226-37.206 238.453-107.205 238.453-178.954zM556.035 642.837c0 76.276-52.157 143.041-129.65 166.628-11.984 3.652-37.282-137.221-37.282-137.221v147.036c0 12.060-9.435 21.837-20.391 21.837h-30.548c-10.88 0-20.353-9.739-20.353-21.837v-147.074c0 0-25.451 140.873-37.548 137.107-77.265-23.587-129.384-90.314-129.384-166.514 0-19.516-46.983 8.103-46.983-76.961h499.122c0.038 85.863-46.983 57.483-46.983 76.999z" />
<glyph unicode="&#xe697;" glyph-name="uniE697" d="M820.043 369.744l-68.922-106.852-45.637 18.414-159.042-290.097h186.844l81.872 108.536h70.295l75.216-108.536h63.33l-144.968 362.545zM875.992 81.655h-51.806l-68.233-90.446h182.721zM72.611 164.848l-53.743-173.639h74.618l59.694 172.935 17.040 134.585h56.855l51.157-139.469-31.258-168.050h72.412l35.6 190.335-35.6 100.324-12.934 45.386 195.908-110.997-36.757-63.818 85.363-49.184 90.3 156.742-85.363 49.186-35.473-61.577-228.106 129.231-12.3 43.197 22.377 90.646 9.642-82.85 15.485-40.212 61.105-35.727-25.343 90.048-19.59 173.007-63.313 2.605-11.125 30.608c42.419 8.666 74.347 45.223 76.699 89.615l-190.588 25.271c-1.392-6.511-2.189-13.259-2.189-20.188 0-33.447 17.004-62.914 42.836-80.263l-1.682 0.182-38.15-32.072-48.878 4.105-107.31-93.813v-142.779l85.238-21.056-12.627-212.312zM54.269 450.079v42.637l36.179 33.050v-83.827l-36.179 8.14zM345.126 756.132l28.962-3.834c3.853 86.087-33.555 142.418-101.283 151.39-5.554 0.742-11.053 1.103-16.497 1.103-59.984 0-103.635-43.902-120.728-120.872l209.547-27.787z" />
<glyph unicode="&#xe69b;" glyph-name="uniE69B" d="M254.664 128.857c-32.762 0-58.322 26.958-58.322 58.326 0 32.765 26.953 58.324 58.322 58.324 32.762 0 58.322-25.559 58.322-58.324 0-32.767-25.559-58.326-58.322-58.326zM701.258 477.163c-15.57 32.762-29.972 39.733-63.898 39.733h-256.060c-34.157 0-48.33-7.203-63.898-39.733l-79.699-167.762h544.644l-81.088 167.762zM978.458 606.586l-361.084 284.406c-29.969 22.771-68.308 35.551-106.65 35.551-38.339 0-76.678-11.386-106.652-35.551l-361.318-284.406c-36.945-26.953-42.754-54.139-42.754-95.267v-480.746c0-34.161 26.953-61.115 61.11-61.115h73.89v266.052c0 22.776 2.788 39.735 14.174 63.898l116.644 243.278c14.174 28.348 49.725 51.119 81.093 51.119h329.95c31.368 0 68.308-22.771 81.088-51.119l116.878-243.278c11.386-24.163 14.174-41.123 14.174-63.898v-265.815h73.89c34.152 0 61.108 26.958 61.108 61.112v480.511c-2.786 42.754-8.595 68.313-45.54 95.267zM763.757 245.503c-32.765 0-58.324-25.559-58.324-58.324 0-32.767 25.559-58.326 58.324-58.326 32.767 0 58.326 26.958 58.326 58.326s-25.559 58.324-58.326 58.324zM261.867-28.909h494.922v86.667h-494.922v-86.667z" />
<glyph unicode="&#xe69f;" glyph-name="uniE69F" d="M511.553 954.664c-279.817 0-506.66-226.826-506.66-506.652 0-180.527 94.443-338.988 236.584-428.722v86.251c0 29.361 19.921 54.104 46.946 61.582 0.020 42.262 0.028 84.548 0.020 126.847-71.214 21.536-124.849 112.364-124.849 220.884 0 70.36 10.383 122.484 31.726 159.341 25.513 44.060 67.759 66.403 125.581 66.403 57.832 0 100.076-22.341 125.591-66.384 21.342-36.874 31.723-88.999 31.723-159.358 0-108.245-53.372-198.894-124.317-220.705 0-42.407 0-84.8-0.028-127.157 26.777-7.642 46.47-32.254 46.47-61.453v-151.918c35.786-8.008 72.999-12.26 111.212-12.26 47.56 0 93.586 6.56 137.225 18.804v147.48c0 29.526 20.141 54.361 47.392 61.692 0.057 35.391 0.093 70.819 0.093 106.243-72.264 0.883-130.787 59.897-130.787 132.363v269.072c0 18.072 14.646 32.714 32.714 32.714 18.074 0 32.712-14.645 32.712-32.714v-269.088c0-36.361 29.18-65.978 65.338-66.84-0.053 112.165-0.311 224.294-0.77 335.782-0.072 18.089 14.518 32.788 32.605 32.861h0.129c18.016 0 32.643-14.553 32.712-32.586 0.477-111.544 0.732-223.746 0.772-335.986 35.445 1.648 63.78 30.92 63.78 66.769v269.088c0 18.072 14.658 32.714 32.734 32.714 18.070 0 32.731-14.645 32.731-32.714v-269.088c0-71.937-57.695-130.622-129.229-132.309-0.019-35.574-0.057-71.131-0.092-106.648 26.535-7.788 46-32.311 46-61.342v-70.783c127.563 92.006 210.586 241.871 210.586 411.163 0.008 279.829-226.817 506.655-506.646 506.655z" />
<glyph unicode="&#xe6a0;" glyph-name="uniE6A0" d="M155.122 467.174h-80.36c-22.109 0-40.184-16.999-40.184-39.682v-260.703c0-22.668 18.076-39.651 40.184-39.651h80.36c22.101 0 40.178 16.983 40.178 39.651v260.703c0 22.683-18.077 39.682-40.178 39.682zM702.829 467.174h-80.353c-22.077 0-40.16-16.999-40.16-39.682v-260.703c0-22.668 18.084-39.651 40.16-39.651h80.353c22.122 0 40.224 16.983 40.224 39.651v260.703c0 22.683-18.104 39.682-40.224 39.682zM540.576 305.478h-302.074c-5.442 0-10.876-7.774-10.876-19.465v-155.64c0-11.658 5.434-19.429 10.876-19.429h300.261c5.453 0 10.884 7.772 10.884 19.429v155.64c1.813 11.691-3.621 19.465-9.071 19.465zM646.566 493.198v38.908c0 54.481-40.717 97.276-92.553 97.276h-330.405c-51.835 0-92.553-42.794-92.553-97.276v-38.908h37.018c31.468 0 59.701-25.189 59.701-58.262v-97.151h322.182v97.151c0 33.074 28.118 58.262 59.577 58.262h37.032zM92.41 62.671h59.212l9.87 32.341h-78.942l9.861-32.341zM625.99 62.671h59.221l9.846 32.341h-78.959l9.893-32.341zM924.935 775.3h-136.581l-78.589-189.471h291.871l-76.701 189.471zM937.106 94.92l-64.44 16.195-1.981 455.781h-28.084l-2.152-455.781-64.436-16.195c-9.367 0-13.859-2.414-13.859-13.794v-18.934h185.232v18.934c1.857 11.379 0.944 13.794-10.281 13.794z" />
<glyph unicode="&#xe6a1;" glyph-name="uniE6A1" d="M1011.21 486.73l-460.784 400.775c-21.468 18.683-56.254 18.683-77.439 0l-460.643-400.775c-21.475-18.696-15.749-33.837 12.882-33.837h142.142v-410.399c0-22.377 18.609-40.91 41.369-40.91h606.217c22.901 0 41.367 18.401 41.367 40.91v410.533h142.142c28.201 0 33.934 15.006 12.748 33.703zM681.805 423.772c-7.695-50.075-65.177-190.812-238.080-179.372-7.956 0.526-16.535-5.124-19.029-12.614-14.027-42.193-21.812-95.917-25.957-145.331-0.715-0.23-1.438-0.447-2.149-0.689-13.809 4.621-28.538 7.461-43.529 8.381 7.754 56.241 21.041 115.899 43.815 150.523 39.381 59.848 103.002 102.162 142.124 161.917 26.013 39.719 49.047 85.44 59.432 132.012-9.776-36.109-33.663-70.489-56.307-99.609-32.106-41.299-72.657-74.502-112.013-108.654-9.104-7.908-44.87-36.393-59.448-74.056-0.007 0.015-17.622 18.034-26.627 34.139-36.332 64.958 1.563 140.653 55.793 182.371 53.894 41.466 123.707 59.052 176.053 101.569 17.344 14.1 33.784 29.472 49.779 45.168 7.382 7.233 19.737 5.3 24.496-3.827 16.465-31.608 45.395-102.597 31.648-191.93z" />
<glyph unicode="&#xe6a2;" glyph-name="uniE6A2" d="M467.759 176.541c-32.080 34.033-48.312 68.363-56.033 89.694h-365.797v-330.235h754.316l-54.995 134.737c-149.896 4.113-233.504 59.196-277.49 105.804zM723.303 124.517l-57.844 141.718h-196.785c22.547-46.886 86.141-130.249 254.629-141.718zM814.281 404.542v529.076c0 14.564-11.802 26.382-26.382 26.382s-26.382-11.818-26.382-26.382v-529.076h-741.967v-85.546h681.365l156.334-382.999h147.205l-190.382 466.417c0.052 0.721 0.21 1.407 0.21 2.128zM393.279 801.345l328.23-124.745v249.491z" />
<glyph unicode="&#xe6a3;" glyph-name="uniE6A3" horiz-adv-x="1520" d="M1173.163 331.326c-243.526 252.4-128.838 133.554-260.375 270.088 0 0-39.626 40.929-91.788 17.191-36.647-16.632-83.782-39.346-119.343-56.599-39.098-21.132-73.138-27.617-80.275-27.617-75.373 0-136.502 63.302-136.502 141.374 0 50.641 25.941 94.736 64.605 119.746 54.365 38.974 179.634 108.079 179.634 108.079s-38.105 50.114-121.732 50.114c-83.534 0-258.048-118.598-258.048-118.598s-49.524-32.892-120.118-3.289l-229.221 66.126 93.184-507.097c0 0 38.788-11.729 73.697-26.438 7.975 23.242 20.542 44.839 38.291 62.557 57.903 57.189 153.817 57.809 206.507 1.614 15.825-16.974 26.903-37.547 32.613-59.982 21.287-6.827 40.37-18.773 55.886-35.312 15.888-16.88 26.934-37.454 32.675-59.92 21.287-6.858 40.339-18.773 55.917-35.406 17.47-18.556 29.075-41.208 34.568-65.722 22.125-6.703 42.263-18.991 58.399-36.305 31.558-33.606 42.884-79.344 36.026-123.47 0-0.031 0-0.031 0-0.031 0-0.031 0-0.031 0-0.062 0.062-0.062 0.155-0.124 0.217-0.217 1.21-1.396 19.704-22.962 31.465-35.126 23.366-24.266 61.409-24.204 84.775 0 23.335 24.173 23.428 63.643 0 87.909-0.714 0.745-1.676 1.334-2.42 2.079 0 0.155 0.124 0.341 0.124 0.528-78.786 81.672-82.882 87.568-75.093 95.635 7.789 8.099 19.332-9.712 107.52-101.159 0.403-0.403 0.931-0.745 1.614-1.024 1.769-2.576 3.506-5.151 5.741-7.416 23.335-24.266 61.409-24.204 84.775 0 23.335 24.173 23.397 63.674 0 87.909-1.21 1.272-2.607 2.265-3.91 3.413-1.148 1.396-2.327 2.793-3.693 4.22-80.462 83.316-89.584 99.142-83.409 105.503 6.982 7.261 44.466-35.375 124.494-118.288 0.186 0 0.372 0.062 0.559 0.062 23.459-22.156 59.888-21.597 82.572 1.893 21.814 22.621 22.993 58.492 3.91 82.913-0.372 1.614-0.962 3.041-1.986 4.127-101.314 105.069-96.97 106.651-90.857 113.012 6.175 6.361 6.609 6.796 105.224-95.356 0.341-0.434 0.621-0.9 0.993-1.365 23.335-24.235 61.44-24.173 84.806 0 23.335 24.204 23.397 63.705 0 87.971-0.621 0.652-1.365 1.148-2.017 1.738zM556.187 107.349c10.985 29.2 7.292 61.968-13.746 84.34-18.928 20.17-46.452 25.476-72.828 19.239 7.354 26.965 3.289 55.73-15.732 76.055-18.991 20.108-46.483 25.414-72.797 19.146 7.261 26.996 3.227 55.761-15.763 76.117-29.789 31.682-81.361 30.348-115.184-3.196-33.668-33.513-55.296-94.115-25.197-129.707 30.037-35.561 64.45-13.964 90.795-7.727-7.261-27.027-29.231-52.193-2.296-87.536 26.903-35.468 64.45-13.964 90.764-7.696-7.323-26.965-28.331-54.644-2.327-87.505 26.159-32.861 69.073-15.329 97.311-6.237-10.923-29.137-34.288-60.447-4.251-95.822 29.975-35.344 99.297-18.866 133.213 14.615 33.823 33.482 37.050 86.481 7.354 118.225-20.48 21.783-51.107 26.841-79.313 17.687zM1244.067 784.493c-24.669-3.568-55.203 11.016-55.203 11.016s-65.226 58.244-138.612 122.259c-59.578 51.883-90.826 49.835-134.237 25.972-71.090-39.16-241.447-138.271-323.243-189.533-30.255-11.295-51.852-41.208-51.852-76.459 0-44.932 35.126-81.392 78.476-81.392 16.756 0 32.209 5.461 44.932 14.739 35.933 18.122 120.987 64.016 178.331 95.418 62.774 34.351 101.841-5.368 101.841-5.368s226.769-233.596 290.506-297.022c41.456-41.115 98.428-22.094 116.643-19.735 18.215 2.42 75.745 17.067 75.745 17.067l93.091 434.424c0 0-224.784-43.784-276.418-51.386z" />
<glyph unicode="&#xe6a4;" glyph-name="uniE6A4" horiz-adv-x="1107" d="M581.189 240.432c-0.055 0 0.249-0.554 0.415-0.913 14.779 0.526 18.46 0.913-0.415 0.913zM880.972 390.324c-15.194 0-30.056-1.578-44.447-4.511l-113.415 197.355c35.037 39.964 56.514 92.354 56.514 149.698 0 125.232-101.459 227.107-226.11 227.107-124.679 0-226.11-101.874-226.11-227.107 0-57.344 21.476-109.651 56.514-149.725l-113.443-197.355c-14.391 2.878-29.253 4.511-44.475 4.511-124.651 0-226.11-101.902-226.11-227.107 0-125.26 101.459-227.134 226.11-227.134 99.356 0 183.766 64.789 214.016 154.458h226.968c30.277-89.669 114.688-154.458 213.988-154.458 124.679 0 226.11 101.874 226.11 227.134 0 125.232-101.431 227.134-226.11 227.134zM664.216 102.054c0 0-78.101 128.055-82.612 137.465-36.587-1.328-141.533-3.626-141.533-3.626-9.659 28.672-24.88 54.742-44.419 76.994 0 0 76.302 150.556 74.863 148.95-0.277-0.304-83.027 110.703-83.027 110.703 14.391-2.878 150.832-66.809 166.054-66.809s30.056 1.605 44.419 4.511l113.47-197.355c-19.594-22.279-68.719-119.78-47.215-210.833z" />
<glyph unicode="&#x10ff01;" glyph-name="message" horiz-adv-x="1365" d="M1365.333 832v-810.667c0-47.128-38.205-85.333-85.333-85.333v0h-1194.667c-47.128 0-85.333 38.205-85.333 85.333v0 810.667l682.667-554.667zM1280 960h-1194.667l597.333-512z" />
<glyph unicode="&#x10ff10;" glyph-name="home12" d="M939.406 363.425v213.713h-169.188v382.862h-512v-382.862h-173.625v-218.264h-84.594v-422.874h1024v427.425h-84.594zM258.219 25.126h-169.093v253.724h84.575v213.713h84.594v-467.437zM681.188 25.126h-129.119v124.587h-84.594v-124.587h-124.663v845.748h338.375v-845.748zM934.95 25.126h-164.731v467.437h80.156v-213.713h84.575v-253.724zM486.438 642.75h46.668v58.975h63.488v46.649h-63.488v63.526h-46.668v-63.526h-59.032v-46.649h59.032v-58.975zM467.475 539.212h-84.594v-84.575h84.594v84.575zM467.475 365.511h-84.594v-84.575h84.594v84.575zM556.601 454.637h84.594v84.575h-84.594v-84.575zM556.601 280.936h84.594v84.575h-84.594v-84.575z" />
<glyph unicode="&#x10ff20;" glyph-name="home22" d="M810.287 550.4v111.313l-298.287 298.287-298.287-298.287v-111.313l-213.713-213.713v-400.687h1024v400.687zM213.713 20.575h-129.119v280.462l129.119 129.138v-409.6zM467.437 20.575v169.15h89.126v-169.15h-89.126zM725.713 20.575h-84.575v258.276h-258.257v-258.276h-84.594v605.487l213.713 213.713 213.713-213.713v-605.487zM939.425 20.575h-129.138v409.6l129.138-129.138v-280.462zM382.881 577.138c0-71.321 57.817-129.138 129.138-129.138s129.138 57.817 129.138 129.138c0 71.321-57.817 129.138-129.138 129.138-0.007 0-0.013 0-0.020 0h0.001c-71.308-0.022-129.108-57.828-129.119-129.137v-0.001zM556.563 577.138c0-24.611-19.952-44.563-44.563-44.563s-44.563 19.952-44.563 44.563v0c0 24.611 19.952 44.563 44.563 44.563s44.563-19.952 44.563-44.563v0z" />
<glyph unicode="&#x10ff30;" glyph-name="home33" horiz-adv-x="1005" d="M1005.037 183.467v85.333h-208.593v294.495h102.21l-396.136 396.705-396.060-396.705h102.135v-294.495h-208.593v-85.333h42.591v-162.133h-42.591v-85.333h1000.77v85.333h-38.324v162.133h42.591zM711.111 21.333h-80.915v541.961h80.915v-541.961zM545.033 563.295v-541.961h-80.915v541.961h80.915zM502.519 840.533l191.64-191.905h-387.546zM379.013 563.295v-541.961h-85.087v541.961h85.163zM127.753 183.467h80.839v-162.133h-80.915v162.133zM877.284 21.333h-80.839v162.133h80.915v-162.133z" />
<glyph unicode="&#x10ff40;" glyph-name="home4" d="M1024 704h-425.15v256h-598.85v-1024h982.85v681.15h41.15v86.85zM256 22.85v169.15h86.85v-169.15h-86.85zM512 22.85h-86.85v256h-256v-256h-82.299v850.299h425.15v-850.299zM896 22.85h-297.15v594.299h297.15v-594.299zM169.131 704h256v86.85h-256v-86.85zM169.131 530.299h256v86.85h-256v-86.85zM169.131 361.15h256v86.85h-256v-86.85zM809.15 534.85h-128v-86.85h128v86.85zM809.15 361.15h-128v-86.85h128v86.85zM809.15 192h-128v-86.85h128v86.85z" />
<glyph unicode="&#x10ff50;" glyph-name="home5" d="M253.724 361.908h-86.073v-86.092h86.073v86.092zM253.724 534.092h-86.073v-86.092h86.073v86.092zM856.348 361.908h-86.073v-86.092h86.073v86.092zM856.348 534.092h-86.073v-86.092h86.073v86.092zM969.633 706.276v167.633h-113.285v86.092h-86.073v-86.092h-113.285v-167.633h-58.899v-172.184h-172.184v172.184h-58.899v167.633h-113.285v86.092h-86.073v-86.092h-113.285v-167.633h-54.367v-770.276h425.908v339.816h172.184v-339.816h425.908v770.276h-54.367zM738.551 792.367h140.459v-86.092h-140.459v86.092zM140.459 792.367h144.991v-86.092h-144.991v86.092zM344.348 22.092h-90.624v126.862h-86.073v-126.862h-81.541v598.092h258.257v-598.092zM425.889 361.908v86.092h172.184v-86.092h-172.184zM942.421 22.092h-86.092v126.862h-86.054v-126.862h-86.092v598.092h258.276v-598.092z" />
<glyph unicode="&#x10ff60;" glyph-name="home6" horiz-adv-x="1023" d="M1015.637 620.184l-91.591 167.633h-64.284v172.184h-692.338v-172.184h-73.368l-87.116-163.081v-4.551c-4.992-12.706-7.886-27.421-7.886-42.811 0-28.455 9.892-54.6 26.424-75.183l-0.182 0.235c12.856-20.723 31.764-36.633 54.237-45.44l0.756-0.261v-520.723h861.943v520.723c24.404 9.615 44.65 25.347 59.477 45.339l0.256 0.362c13.577 20.425 21.664 45.519 21.664 72.502 0 16.241-2.93 31.798-8.29 46.171l0.298-0.913zM933.148 588.516c2.063-4.256 3.269-9.256 3.269-14.539 0-8.268-2.954-15.845-7.865-21.735l0.044 0.054c-7.677-11.088-20.33-18.258-34.657-18.258-0.749 0-1.494 0.020-2.234 0.058l0.104-0.004c-0.425-0.012-0.926-0.019-1.428-0.019-26.826 0-49.11 19.45-53.518 45.017l-0.046 0.323-35.271 122.311h72.059zM309.551 703.621v-1.896h74.619l-10.411-113.209c0-3.603 0.114-7.206 0.303-10.809l-0.303-2.844c-2.499-25.534-23.857-45.325-49.838-45.325-0.212 0-0.424 0.001-0.636 0.004h0.032c-16.265 0.307-30.855 7.228-41.239 18.178l-0.024 0.026c-4.524 6.655-7.593 14.647-8.568 23.274l-0.022 0.24zM474.529 706.276h73.197l13.653-128.379c-0.418-9.664-3.697-18.488-9.005-25.732l0.092 0.132c-10.169-9.532-23.885-15.387-38.969-15.387s-28.8 5.855-39 15.416l0.031-0.029c-8.514 7.516-13.856 18.455-13.856 30.641 0 0.361 0.005 0.721 0.014 1.080l-0.001-0.053zM648.799 588.516l-13.653 117.76h74.524l39.443-132.551c-0.196-8.308-3.479-15.813-8.74-21.447l0.017 0.019c-7.612-11.083-20.216-18.257-34.497-18.257-0.739 0-1.474 0.019-2.204 0.057l0.102-0.004c-0.913-0.056-1.981-0.088-3.057-0.088-24.070 0-44.42 15.931-51.079 37.825l-0.099 0.378c0.030 0.994 0.047 2.163 0.047 3.336 0 4.57-0.258 9.080-0.761 13.516l0.050-0.544zM767.886 873.908v-81.541h-517.935v81.541h518.030zM89.372 588.516l59.62 113.209h69.442l-28.179-95.194c-1.935-8.183-3.147-17.642-3.354-27.348l-0.002-0.148-1.233-4.172c-9-22.663-29.892-38.79-54.769-40.756l-0.224-0.014c-14.863 0.273-28.033 7.288-36.618 18.106l-0.076 0.099c-4.867 5.816-7.823 13.378-7.823 21.629 0 5.304 1.221 10.323 3.398 14.791l-0.088-0.2zM424.088 22.092v212.954h174.27v-212.954h-174.27zM680.846 22.092v212.954h45.89v86.092h-430.933v-86.092h41.263v-212.954h-169.643v430.839c23.452 6.509 43.733 17.841 60.577 32.931l-0.142-0.125c23.213-23.36 55.36-37.818 90.884-37.818 1.609 0 3.211 0.030 4.806 0.088l-0.23-0.007c36.507 0.197 69.611 14.609 94.091 37.977l-0.054-0.051c24.276-23.514 57.411-38.007 93.93-38.007 1.645 0 3.283 0.029 4.913 0.088l-0.236-0.007c0.925-0.024 2.014-0.038 3.107-0.038 34.416 0 65.635 13.684 88.515 35.908l-0.031-0.030c25.664-22.269 59.399-35.84 96.303-35.84 0.010 0 0.020 0 0.030 0h-0.002c0.524-0.008 1.143-0.013 1.763-0.013 35.166 0 66.901 14.69 89.403 38.269l0.046 0.048c16.537-15.223 36.719-26.752 59.076-33.122l1.037-0.253v-430.839h-174.27z" />
<glyph unicode="&#x10ff70;" glyph-name="home7" d="M960 0v576h-448v384h-448v-960h-64v-64h1024v64h-64zM128 896h128v-128h-128v128zM128 704h128v-128h-128v128zM128 512h128v-128h-128v128zM128 320h128v-128h-128v128zM384 0h-192v128h192v-128zM448 192h-128v128h128v-128zM448 384h-128v128h128v-128zM448 576h-128v128h128v-128zM448 768h-128v128h128v-128zM576 512h128v-128h-128v128zM576 320h128v-128h-128v128zM832 0h-192v128h192v-128zM896 192h-128v128h128v-128zM896 384h-128v128h128v-128z" />
<glyph unicode="&#x10ff80;" glyph-name="home8" d="M0 768h256v-64h-256v64zM0 960h256v-128h-256v128zM768 384v192l-256-192v192l-256-192v256h-256v-704h1024v640zM448 128h-128v64h128v-64zM448 256h-128v64h128v-64zM704 128h-128v64h128v-64zM704 256h-128v64h128v-64zM960 128h-128v64h128v-64zM960 256h-128v64h128v-64z" />
<glyph unicode="&#x10ff90;" glyph-name="mark" horiz-adv-x="1226" d="M452.659 960c-233.361-108.118-452.789-348.444-452.789-672.363 0-202.014 125.388-351.782 289.088-351.782s250.776 118.422 250.776 240.327c0 132.354-90.558 236.844-229.878 236.844-0.561 0.007-1.223 0.011-1.886 0.011-31.563 0-61.005-9.085-85.852-24.783l0.663 0.391c3.483 135.837 118.422 323.918 316.952 417.959zM1138.823 960c-236.844-108.118-452.789-348.444-452.789-672.363 0-202.014 125.388-351.782 289.088-351.782 160.218 0 250.79 118.422 250.79 240.327 0 132.354-90.572 236.844-229.892 236.844-1.296 0.040-2.821 0.062-4.35 0.062-30.75 0-59.37-9.119-83.304-24.799l0.579 0.356c3.483 135.837 118.422 323.918 313.469 417.959z" />
</font>
</defs>
</svg>
